#TITLE:Vertex DELTA;
#SUBTITLE:;
#ARTIST:Silvia;
#TITLETRANSLIT:;
#SUBTITLETRANSLIT:;
#ARTISTTRANSLIT:;
#CREDIT:;
#BANNER:vertexdelta-bn.png;
#BACKGROUND:vertexdelta-bg.png;
#LYRICSPATH:;
#CDTITLE:!HSTTitle.png;
#MUSIC:vertexdelta.mp3;
#OFFSET:0.680;
#SAMPLESTART:108.139;
#SAMPLELENGTH:12.000;
#SELECTABLE:YES;
#BPMS:0.000=135.000,52.000=270.000,276.000=135.000,341.146=270.000,533.896=135.000;
#STOPS:339.750=1.111
;
#BGCHANGES:;
// cache tags:
#FIRSTBEAT:4.000;
#LASTBEAT:574.000;
#SONGFILENAME:Songs/Music V.I.P ^_^/Vertex Delta/vertexdelta.sm;
#HASMUSIC:1;
#HASBANNER:1;
#MUSICLENGTH:166.060;
// end cache tags

//---------------dance-single - ----------------
#NOTES:
     dance-single:
     :
     Hard:
     14:
     1.000,1.000,1.000,0.548,1.000,1878.000,427.000,91.000,0.000,0.000:
0000
0000
0000
0000
,
2001
0000
0000
3002
0000
0000
0203
0300
0102
0000
0000
2003
0000
0000
3200
0300
,
0012
0000
0003
0200
0000
0300
0220
0330
2002
0000
3003
0000
0000
0000
0000
0000
,
2000
0000
3000
0000
0000
0000
0200
0300
,
0022
0033
0000
0000
0000
0000
0000
0000
,
1200
0000
0000
2300
0000
0000
3200
0300
0012
0000
0000
0203
0000
0300
0020
0030
,
2020
0000
0000
0000
3030
0000
0200
0000
0000
0000
0300
0000
0022
0000
0033
0000
2200
0000
0000
0000
3300
0000
0000
0000
0000
0000
0000
0000
0000
0000
1000
0100
,
1000
0001
1000
0000
0010
0000
0100
0001
0100
0010
1000
0000
0100
0000
1000
0010
0100
0001
0010
0000
0100
0000
1000
0100
0010
0001
0100
0000
0010
0000
0100
0001
,
0100
0010
1000
0000
0100
0000
1000
0010
0100
0001
0010
0000
0100
0000
1000
0100
0010
0001
0100
0000
0010
0000
0100
0001
0100
0010
1000
0000
0100
0000
1000
0000
,
1001
1100
1001
0101
0000
0110
0011
0110
1100
1001
1100
1010
0110
0101
0011
0110
,
1100
1001
0101
1001
0000
1100
1001
0011
0110
0011
1001
1010
0110
0011
1001
1100
,
1001
0011
1001
1100
0000
1100
1001
0011
1100
1010
0101
0011
0101
1010
1100
1001
,
1100
1001
0000
0110
0000
0011
1100
1010
0101
1001
1100
1001
0101
1001
1100
0101
,
1001
0100
0001
0100
0010
1000
0010
1000
0100
1000
0100
0010
0001
0010
0001
1000
,
0010
1000
0010
0100
0001
0100
0001
0010
0001
0010
0001
1000
0010
1000
0010
0100
,
0110
0100
0001
0100
0001
0100
0010
1000
0010
1000
0100
1000
0100
1000
0001
1000
,
0001
0010
0001
0010
0001
1000
0001
1000
0010
0100
0010
0100
0001
0010
0001
0010
,
1100
1000
0100
1000
0010
0100
0010
0100
0001
0010
0001
0010
0100
1000
0100
1000
,
0010
0100
0010
0100
0001
0100
0001
0010
0100
0010
0100
1000
0100
1000
0100
1000
,
1001
0100
1000
0100
0010
0100
1000
0100
1001
0100
0010
0001
0010
0100
1000
0100
,
0010
0100
0010
0100
1001
0010
0100
0001
1100
0010
0100
0001
0110
1000
0001
0100
,
1001
0100
0011
1100
0000
0100
1001
0100
,
0011
0100
1010
0100
0011
1001
0011
0100
,
1010
1001
0101
1001
0000
0010
1100
0010
,
0101
1000
0110
0001
0101
1000
1100
0010
,
0011
0110
1100
1001
0000
0100
1010
0100
,
1001
0100
0011
0100
1010
0100
0011
0110
,
1100
1001
0100
1001
0000
0100
1001
0100
,
0011
0000
0100
0000
1010
0000
0100
0000
0001
1000
0001
1000
0001
1000
0001
1000
,
1001
0100
1010
1100
0000
0100
0011
1000
,
0110
0001
0110
1000
0101
0010
1100
0010
,
0101
1001
1100
1001
0000
0010
1100
0010
,
0101
0010
1100
0001
0110
1000
0110
0001
,
0011
0110
1100
1001
0000
0100
1010
0001
,
0110
1000
0101
0010
1100
0010
1001
0100
,
1010
0110
0001
1001
0000
1000
0110
0001
,
1100
0000
0010
0000
0101
0000
0010
0000
1000
0001
1000
0001
1000
0001
1000
0001
,
1001
0100
1000
0000
1010
0000
0100
0001
0010
0001
0100
0000
0110
0000
0010
1000
,
0001
0100
0010
0000
1010
0000
1000
0001
0010
0100
1000
0000
1100
0000
0100
0010
,
0001
1000
0010
0000
0110
0000
0100
0001
0100
0010
1000
0000
1100
0000
0100
1000
,
0001
0100
0010
0000
1010
0000
1000
0001
1000
0100
0010
0000
0011
0000
0001
1000
,
0010
0100
0001
0000
1001
0000
1000
0001
1000
0100
1000
0000
1100
0000
1000
0010
,
0100
0001
0010
0000
0110
0000
0100
1000
0001
0100
0010
0000
1010
0000
1000
0001
,
0010
0100
1000
0000
1001
0000
0001
0010
0001
1000
0010
0000
1010
0000
1000
0100
,
1000
0010
0100
0000
0101
0000
0001
0100
0001
1000
0001
1000
0001
1000
0001
1000
,
1001
0100
1000
0010
0100
0001
0100
0001
0010
0100
1000
0100
1000
0010
0100
0010
,
1000
0100
0010
0001
0010
0100
0010
0001
1000
0010
1000
0100
1000
0001
0010
0001
,
1000
0010
0100
0001
0010
0001
1000
0100
1000
0001
0010
0001
1000
0100
1000
0010
,
0100
0010
1000
0100
0010
0001
0010
0001
1000
0010
1000
0100
1000
0001
0100
0001
,
0010
0100
0010
0100
1000
0100
1000
0001
1000
0001
0010
0100
1000
0001
1000
0010
,
0100
0001
0010
0001
1000
0100
1000
0010
0100
0001
0010
0001
0100
0010
1000
0100
,
1000
0100
0010
0001
1000
0010
0100
0001
0010
0100
1000
0100
0010
0001
1000
0010
,
1000
0001
1000
0001
1000
0001
1000
0001
0010
0100
0010
0100
0010
0100
0010
0100
,
0010
0001
0010
0001
1000
0100
1000
0100
0010
0100
0010
0100
1000
0100
1000
0100
,
1000
0001
1000
0001
0010
0001
0010
0001
0010
0100
0010
0100
1000
0100
1000
0010
,
0100
0010
0100
0001
0100
0001
0100
0010
1000
0010
1000
0100
0010
0100
0010
0001
,
0010
0001
1000
0001
1000
0001
1000
0010
1000
0010
0100
0010
0100
0010
0100
0001
,
0100
0001
1000
0001
1000
0001
1000
0010
1000
0010
0100
0010
0100
0010
0100
0001
,
0100
0001
0010
0001
0010
0001
1000
0010
1000
0010
0100
0001
0100
0001
0010
0100
,
0010
0100
1000
0100
1000
0100
0010
0001
0010
0001
1000
0001
1000
0001
1000
0010
,
1000
0010
1000
0100
1000
0100
0010
0001
0010
0001
1000
0010
1000
0010
0100
0001
,
1000
0100
1000
0010
0100
0001
0010
0001
1000
0100
1000
0010
0100
0001
0010
0001
,
1000
0100
1000
0010
0100
0001
0010
0100
1000
0100
1000
0001
0010
0001
1000
0100
,
1000
0010
0100
0001
0010
0100
1000
0010
0100
0001
0010
0100
1000
0001
1000
0010
,
0100
0001
0010
0100
1000
0100
0010
0001
1000
0010
0100
0001
0010
0100
1000
0001
,
1000
0100
1000
0010
0100
0001
0010
0001
1000
0100
1000
0010
0100
0010
0100
0001
,
0100
0010
1000
0100
1000
0010
0100
0001
0010
0100
1000
0010
0100
0001
0010
0100
,
1000
0001
1000
0100
1000
0001
0010
0001
1000
0001
1000
0010
0100
0001
0010
0100
,
1000
0100
1000
0100
1000
0100
1000
0100
0010
0001
0010
0001
0010
0001
0010
0001
,
2001
0000
0000
3200
0000
0000
2300
3000
1002
0000
0000
0023
0000
0000
0230
0300
,
2100
0000
0000
3200
0000
0000
0320
0030
0022
0000
0033
0000
2002
0000
3003
0000
,
1200
0000
0000
2300
0000
0000
3200
0300
0120
0000
0000
0230
0000
0000
2300
3000
,
1200
0000
0000
2300
0000
0000
3002
0003
2002
0000
3003
0000
2020
0000
3030
0000
,
1200
0000
0000
2300
0000
0000
3200
0300
0120
0000
0000
0230
0000
0000
0320
0030
,
0012
0000
0000
0023
0000
0000
0230
0300
2100
0000
3000
0000
2002
0000
3003
0000
,
2010
0000
0000
3020
0000
0000
2030
3000
1002
0000
0000
2003
0000
0000
3002
0003
,
0201
0000
0000
0302
0000
0000
2003
3000
1020
0000
0000
0000
0000
0000
0030
0000
,
1001
1100
1001
0101
0000
0101
0011
0110
1100
1001
0101
0011
0110
1100
1001
0101
,
0011
0110
1100
1001
0000
1001
0011
0110
0011
1001
1010
0110
0101
0011
0110
1001
,
0011
0110
0011
1100
0000
1100
1001
0011
0110
1100
1010
0110
0101
0011
1001
1100
,
0101
1001
1100
1001
0000
1100
1001
0011
0110
0011
1001
1010
1001
0101
1001
1100
,
1001
1100
1010
0110
0000
0110
0101
0011
0110
1100
1001
0101
0011
0110
1100
1001
,
0101
1001
1100
1001
0000
1100
1001
0011
0110
1100
1001
0011
0101
1010
1100
1001
,
1100
1001
0101
1001
0000
1001
1100
1010
0110
0101
0011
0110
1100
1001
1100
1001
,
0101
0000
0000
0000
0000
0000
0000
0000
0000
0000
0000
0000
1001
0000
0000
0000
0000
0000
0000
0000
0000
0000
0000
0000
1100
0000
0000
0000
0000
0000
0000
0000
0000
0000
0000
0000
1001
0000
0000
0000
0000
0000
0000
0000
0000
0000
0000
0000
0000
0000
0000
0000
0000
0000
0000
0000
0000
0000
0000
0000
1001
0000
0000
0000
0000
0000
0000
0000
0000
0000
0000
0000
1100
0000
0000
0000
0000
0000
0000
0000
0000
0000
0000
0000
0011
0000
0000
0000
0000
0000
0000
0000
0000
0000
0000
0000
1010
0000
0000
0000
0000
0000
0000
0000
0000
0000
0000
0000
0101
0000
0000
0000
0000
0000
0000
0000
0000
0000
0000
0000
1001
0000
0000
0000
0000
0000
0000
0000
0000
0000
0000
0000
0110
0000
0000
0000
0000
0000
0000
0000
0000
0000
0000
0000
1010
0000
0000
0000
0000
0000
0000
0000
0000
0000
0000
0000
0101
0000
0000
0000
0000
0000
0000
0000
0000
0000
0000
0000
0011
0000
0000
0000
0000
0000
0000
0000
0000
0000
0000
0000
2002
0000
0000
0000
0000
0000
0000
3003
0000
0000
0000
0000
,
0000
2002
0000
0000
0000
0000
3003
0000
1000
0100
1000
0001
0010
0001
1000
0010
,
0100
0001
0010
0001
1000
0100
1000
0010
0100
0001
0100
0010
1000
0100
1000
0001
,
0100
0001
0010
0100
1000
0100
1000
0010
0100
0001
0010
0100
1000
0100
1000
0010
,
0100
0001
0010
0001
1000
0100
1000
0010
0100
0001
0010
0001
1000
0100
1000
0010
,
0100
0010
1000
0100
0010
0001
1000
0010
0100
0001
0010
0100
1000
0100
1000
0010
,
0100
0010
0100
0001
0010
0001
1000
0100
1000
0001
1000
0010
1000
0001
0010
0001
,
1000
0001
0100
0001
0010
0100
1000
0100
1000
0010
0100
0001
0010
0001
1000
0100
,
1000
0010
0100
0010
1000
0100
1000
0001
1000
0001
1000
0100
1000
0001
0010
0001
,
1000
0001
1000
0001
0010
0001
1000
0100
0010
0001
1000
0010
0100
0001
0010
0001
,
1000
0100
0010
0001
0010
0100
1000
0100
1000
0100
0010
0100
0010
0001
0010
0001
,
1000
0010
0100
0001
0100
0010
1000
0100
0010
0001
0010
0001
1000
0100
1000
0001
,
1000
0001
0010
0001
0010
0001
0100
0001
0100
0010
1000
0100
1000
0010
0100
0010
,
1000
0100
1000
0001
0010
0001
0100
0001
0010
0001
1000
0001
1000
0001
0010
0001
,
1000
0010
1000
0100
1000
0001
0100
0001
0010
0001
1000
0100
0010
0100
1000
0010
,
0100
0001
0010
0100
1000
0100
1000
0010
0100
0001
0010
0100
1000
0100
1000
0010
,
0100
0001
0010
0100
1000
0100
1000
0010
1000
0001
1000
0001
1000
0001
1000
0001
,
0010
0100
0010
0100
0010
0100
0010
0100
1000
0100
1000
0010
0100
0001
0010
0100
,
1000
0100
1000
0010
0100
0001
0010
0001
1000
0100
1000
0001
0010
0001
0010
0100
,
1000
0100
1000
0010
0100
0001
0010
0001
1000
0100
1000
0010
0100
0001
0010
0001
,
1000
0001
1000
0010
0100
0001
0010
0001
1000
0100
1000
0010
0100
0010
1000
0100
,
1000
0001
0010
0001
1000
0100
1000
0010
0100
0001
0010
0100
1000
0001
1000
0001
,
0010
0100
0010
0100
1000
0100
1000
0010
0100
0010
1000
0100
1000
0001
0010
0001
,
0100
0001
0010
0001
1000
0010
1000
0100
1000
0010
0100
0001
0100
0010
1000
0100
,
1000
0010
0100
0001
0010
0001
1000
0100
1000
0001
1000
0001
0010
0001
1000
0010
,
0100
0001
0010
0001
1000
0100
1000
0010
0100
0001
0100
0010
1000
0100
1000
0001
,
1000
0001
0010
0001
0010
0100
1000
0100
1000
0010
0100
0001
0100
0010
0100
0001
,
1000
0100
1000
0010
0100
0001
0010
0100
0010
0001
0100
0010
1000
0100
1000
0100
,
1000
0010
0100
0001
0010
0001
1000
0100
0010
0001
1000
0010
0100
0001
1000
0100
,
1000
0001
1000
0001
0010
0001
1000
0100
1000
0010
0100
0001
0010
0100
1000
0100
,
1000
0001
1000
0001
0010
0100
1000
0100
1000
0010
0100
0001
0010
0001
1000
0100
,
1000
0010
0100
0001
0010
0001
1000
0100
1000
0010
0100
0001
0010
0100
1000
0010
,
0100
0001
0010
0100
1000
0010
0100
0001
1000
0100
1000
0100
1000
0100
1000
0100
,
0010
0001
0010
0001
0010
0001
0010
0001
1001
0100
1000
0000
1010
0000
1000
0001
,
1000
0010
0100
0000
0101
0000
0001
0010
0001
1000
0010
0000
0110
0000
0010
1000
,
0100
0010
0001
0000
0011
0000
0001
1000
0001
0100
0010
0000
1010
0000
0010
1000
,
0001
0100
0010
0000
1010
0000
1000
0001
0010
0001
1000
0000
1100
0000
0100
1000
,
0001
0100
0010
0000
1010
0000
0010
1000
0100
0010
0001
0000
0011
0000
0001
1000
,
0001
0010
0100
0000
1100
0000
1000
0100
1000
0001
0010
0000
0011
0000
0010
0001
,
1000
0010
0100
0000
0101
0000
0001
0100
0010
1000
0100
0000
1100
0000
1000
0100
,
1000
0001
0100
0000
0101
0000
0001
0100
0001
0010
0100
0000
1100
0000
1000
0100
,
1000
0001
0010
0000
0011
0000
1000
0100
1000
0010
0100
0001
0010
0001
1000
0100
,
1000
0010
0100
0010
1000
0100
1000
0001
0100
0001
1000
0010
1000
0100
0010
0001
,
1000
0010
0100
0001
1000
0001
1000
0010
0100
0010
0100
0001
0010
0001
1000
0100
,
1000
0100
1000
0010
0100
0001
0010
0001
0100
0010
1000
0100
1000
0001
1000
0010
,
0100
0001
0010
0001
0100
0010
1000
0100
0010
0001
1000
0010
0100
0001
0010
0100
,
1000
0100
1000
0010
0100
0001
0010
0001
1000
0100
1000
0010
0100
0001
0010
0100
,
1000
0100
1000
0010
0100
0001
0010
0100
1000
0010
0100
0001
0010
0100
1000
0010
,
0100
0001
0100
0010
1000
0100
0010
0001
1000
0010
1000
0010
1000
0010
1000
0010
,
0100
0001
0100
0001
0100
0001
0100
0001
1001
1100
1001
0101
0000
0101
1001
1010
,
0110
0101
0011
0110
1100
1001
0101
1001
1100
0110
0011
0110
0000
0110
1100
1001
,
0101
0011
0101
1010
1100
0110
0011
0110
1100
1001
0101
1001
0000
1100
1001
0011
,
0110
0011
1001
1010
0110
0101
0011
0110
1100
0110
0011
1001
0000
1001
0011
0110
,
1100
1001
1100
0101
1001
1100
1001
0101
2002
0000
0000
0000
3003
1100
1001
0101
,
0011
0110
1100
1001
1100
0110
0011
0110
0022
0000
0033
0000
0000
1001
1100
0101
,
0011
0110
1100
1001
1100
0110
0011
0110
2002
0000
3003
0000
0000
1001
1100
0101
,
1001
0011
0110
1100
1001
1100
1001
0101
2002
0000
3003
0000
0000
0110
0101
0011
,
0110
1100
1001
0011
1100
1010
0101
0011
2002
0000
0000
0000
0000
0000
0000
0000
,
0000
0000
0000
0000
,
0000
0000
3003
0000
;

//---------------dance-single - ----------------
#NOTES:
     dance-single:
     :
     Easy:
     1:
     1.000,1.000,0.114,1.000,1.000,1530.000,19.000,177.000,0.000,9.000:
0000
0000
0000
0000
,
0010
0100
0010
0100
,
1000
0020
0031
0100
,
1000
0010
0100
0001
,
0100
1000
0010
0220
,
0330
0001
0100
1000
,
0010
0000
0001
0010
0100
1000
0001
0010
,
0100
1000
0001
0010
0100
1000
0001
0010
,
0100
0000
0000
1000
0000
0000
0000
0000
0001
0000
0010
0000
0100
0000
0001
0000
0010
0000
0100
0000
1000
0000
0100
0000
,
0010
0021
0230
2300
3200
0310
0001
0010
0100
0010
0100
1000
,
0010
0100
0001
0010
0100
1000
0100
0010
0001
0010
0100
1000
,
0100
1000
0100
1000
0100
0010
0001
0010
0100
1000
0100
0010
,
0001
0010
0100
1000
0010
0100
0001
0010
0100
1000
0001
0010
,
0100
1000
0200
0310
0001
0010
0100
0010
0200
1300
0001
0020
,
0130
0001
0010
0100
1000
0010
0100
0001
0010
0100
2000
3001
,
0010
0100
0020
0130
1000
0001
0010
0100
0010
0100
1000
0001
,
0010
0100
1000
0001
0010
0100
0010
0002
1003
0100
0010
0100
,
0010
0001
1000
0100
0010
0001
0010
0100
0001
0010
0100
1000
,
0010
0100
0001
0010
0100
0010
0100
1000
0100
0010
0001
0010
,
0200
1300
0100
0010
0001
0010
0100
1000
0020
0130
0002
1003
,
0100
0010
0001
0010
0100
1000
0001
0010
0100
1000
0100
0010
,
0001
0010
0100
0001
0010
0100
1000
0100
0010
0100
0010
0002
,
1003
0200
0310
0001
0100
0010
0002
0023
0130
0001
0010
0100
,
0010
0100
1000
0100
0010
0001
0010
0100
0001
0010
0001
0010
,
1000
0100
0010
0100
1000
0100
0020
0130
1000
0100
0010
0100
,
1000
1000
0100
1000
0100
0010
0001
0010
0100
1000
1000
0100
,
0010
0001
0001
0010
0100
1000
1000
0100
0010
0001
1000
0100
,
0010
0001
1000
0100
0010
0001
0010
0100
1000
0100
1000
0000
,
0001
0010
0001
0010
0001
0010
0001
0010
0100
2000
3100
0010
,
0001
0010
0100
0001
0010
0100
1000
0100
0010
1000
0100
0010
,
0001
0100
0010
2000
3000
0100
0010
0001
0010
0100
1000
0100
,
0020
0130
0002
0013
0100
1000
0001
0020
0130
0010
1000
0100
,
0010
0001
0010
0100
2000
3100
0010
0001
0010
0100
1000
0100
,
0010
0100
0020
0230
2300
3000
0200
0320
0032
0023
0230
2300
,
3200
0300
0001
0010
0100
1000
0010
0100
1000
0010
0001
0010
,
0100
0000
1000
0100
0010
0002
0013
0100
1000
0100
0010
0001
,
0010
0100
1000
0010
0100
1000
0001
0010
0100
1000
0020
0000
,
0000
0030
0001
0010
0100
1000
0100
0010
0001
0200
0300
0001
,
0100
1000
0010
0100
1000
0001
0010
1000
0001
0010
0100
0000
,
1000
0010
0001
1000
0100
0001
1000
0010
0001
0100
0010
0002
,
0003
0100
0010
1000
0100
0001
0020
0230
2300
3100
0010
0001
,
0100
0020
1030
0100
0010
0001
1000
0100
0010
0001
1000
0100
,
0010
0001
2000
3100
0010
0001
1000
0100
0010
0001
2000
0200
,
0320
0032
3003
0001
0010
0100
1000
0001
0010
0100
0001
0100
,
1000
0100
0010
0100
0001
0010
0100
1000
0001
0010
0100
0001
,
0100
1000
0100
0010
0001
1000
0100
0010
0001
0100
1001
0010
,
0100
1000
0001
0100
0010
0001
0010
0100
1000
0100
0001
0100
,
0010
0000
0100
0001
0100
0001
0010
0100
1000
0100
0010
1000
,
0010
1000
0100
0002
0003
0010
0100
0100
1000
0010
1000
0010
,
0001
1000
0001
1000
0100
0010
0001
0010
0100
1000
0100
0010
,
0001
0010
0100
1000
0010
0100
0001
0100
1000
0100
0010
0001
,
0100
0010
0001
1000
0100
0010
0001
0100
0010
1000
0100
0010
,
0001
1000
0100
0020
0031
0010
0100
1000
0001
0010
0200
1300
,
0001
0010
0100
1000
0001
0010
0100
1000
0001
0010
0100
0002
,
0103
1000
0100
0010
0001
0100
0001
0010
0100
1000
0002
0003
,
1000
0001
1000
0001
0100
0001
0100
1000
0010
1000
0010
0100
,
0001
1000
0010
0100
0001
1000
0100
0010
0001
0100
0010
1000
,
0001
0100
0010
1000
0001
0100
0010
0001
0010
0100
1000
0001
,
0010
0100
1000
0001
0010
0100
1000
0001
0010
0100
1000
0100
,
0010
0100
0001
0010
0100
1000
0000
0001
0010
0001
0010
1000
,
0100
1000
0100
0010
0001
1000
0010
1000
0010
0001
0100
0001
,
0100
1000
0100
0010
0100
1000
0010
0002
0013
0001
0010
0200
,
0300
0001
1000
0100
0010
0001
0100
0001
0010
0100
1000
0100
,
0010
0100
2000
0000
3200
0310
0001
0020
0230
0300
0000
1000
,
0020
0031
0200
1300
0200
0320
0031
0010
0100
1000
0100
0010
,
0100
0010
0001
0100
1000
0010
0001
0100
1000
0100
0010
0001
,
0010
0100
0010
0001
1000
0001
0100
1000
0010
1000
0010
0001
,
0100
0001
0100
0010
0100
1000
0001
0010
0100
0001
0100
1000
,
0001
0010
0100
0001
1000
0100
0010
0001
1000
0100
0000
0000
,
0000
1000
0100
0010
0100
0010
0100
0001
,
0010
0100
2000
0000
3000
0001
0010
0100
,
1000
0010
0100
0001
0110
1000
2200
0000
,
3302
0023
0230
0322
0000
0233
0300
1000
,
0010
0220
0000
2330
3000
0100
0010
0001
,
0010
1000
0010
0001
0002
0000
0000
0003
,
1000
0100
0010
0100
0001
0100
1000
0010
,
0100
0000
0010
0020
0000
0000
0030
0000
,
0001
0000
0000
0000
0010
0000
0000
0000
0100
0000
0000
0000
0010
0000
0000
0000
0100
0000
0000
0000
1002
0000
0000
0000
0003
0000
0000
0000
0010
0000
0000
0000
0100
0000
0000
0000
1000
0000
0000
0010
0000
0000
0100
0000
0000
1000
0000
0000
,
0001
0010
0100
1000
0010
0100
0001
0100
1000
0100
0010
0001
0010
0100
1000
0100
,
1000
0100
0010
0001
0010
0001
0010
1000
0100
0010
0001
0010
0100
0011
0000
0100
,
2000
3100
0010
0001
0010
0100
0001
0100
1000
0010
0100
0001
0100
1000
0100
0010
,
0000
0100
0001
0100
2000
3010
0100
0001
0100
1000
0100
0010
0000
1000
0100
0010
,
0001
1000
0001
0010
0100
0001
0010
0200
1300
0001
0010
0100
1000
0001
0010
0100
,
1000
0001
0010
0100
0020
1030
0100
0010
0001
1000
0100
0010
0100
0001
0010
0100
,
1000
0100
0010
0001
0010
0100
1000
0001
0010
0100
1000
0001
0010
0100
1000
0022
,
0000
0000
0000
0000
0000
0000
0000
0000
0000
0033
0000
0000
0000
0000
0000
0000
1000
0000
0000
0000
0100
0000
0000
0000
0010
0000
0000
0000
0100
0000
0000
0000
0001
0000
0000
0000
0010
0000
0000
0000
0100
0000
0000
0000
0001
0000
0000
0000
,
0100
1000
0100
0010
0100
0001
0010
0100
1000
0100
0011
0010
,
0100
1000
0100
0000
0100
0100
0001
0010
1000
0100
0010
0001
,
0001
0100
0010
1000
0100
0010
0001
0010
0100
1000
0100
0010
,
0001
0010
0100
0001
0010
0100
1000
0100
0010
0100
0010
0100
,
0000
1000
0100
1000
0100
0001
0100
0001
1000
0010
1000
0010
,
0001
0001
0100
1000
0100
0010
0001
0100
1000
0000
0001
0010
,
0100
0001
1000
0100
0010
0100
0001
1000
0010
0100
0001
1000
,
0010
0100
1000
0100
0010
0001
0100
0010
1000
0001
0010
0100
,
1000
0100
0001
0010
0100
0001
1000
0100
0010
0100
1000
0100
,
0010
0200
0000
0301
0010
0100
1000
0100
0010
0001
0010
0100
,
1001
0010
0100
0010
0100
0001
2000
3100
0010
0001
0010
0100
,
0001
0010
0100
1000
0100
0010
0001
2000
3200
0320
0032
0023
,
0230
0302
0023
2030
3200
0300
0001
0010
0100
1000
0100
0010
,
0100
0010
1000
0001
0010
0100
1000
0010
0001
0100
0010
1000
,
0000
0000
0000
0000
0001
0000
0000
0000
0010
0000
0000
0000
0100
0000
0000
0000
1000
0000
0000
0000
1000
0000
0000
0000
0100
0000
0000
0000
0010
0000
1000
0000
0001
0100
0000
0000
0010
0000
0000
0001
0000
0000
1000
0000
0000
0100
0000
0000
,
0010
0000
0000
1001
0000
0000
0100
0000
0000
0010
0000
0000
0001
0000
0000
0000
1000
0000
0000
0000
0100
0000
0000
0000
0010
0000
0000
0000
0001
0000
0000
0000
0010
0000
0000
0000
0100
0000
0000
0000
0001
0000
0000
0000
0010
0000
0000
0000
,
0100
1000
1000
0100
0010
0001
0010
0100
0001
0010
0100
1000
,
0010
0010
0100
0000
0101
0010
1000
0010
0100
0001
0100
1000
,
0010
0001
0010
0200
0301
1000
0100
0010
0001
0010
0100
0010
,
0100
1000
0100
0010
0001
0010
0100
0001
0020
1030
0010
0100
,
1000
0001
0100
1000
0010
0100
1000
0002
1003
0100
0010
0001
,
1000
0100
0001
1000
0010
0001
1000
0100
0010
0001
0010
0100
,
0010
0100
1000
0200
0310
0001
0010
0010
0100
0001
0010
0001
,
1000
0020
2030
3100
0010
0001
0100
1000
0010
0200
0301
0020
,
0130
1000
0010
0001
0010
0100
1000
0001
0010
1000
0100
0010
,
0001
0100
0001
0010
1000
0001
0010
0100
1000
0001
0001
0010
,
0100
0010
1000
0100
0010
0001
0010
0100
0001
0100
1000
0010
,
0001
0100
0002
0023
1030
0100
0010
1000
0100
1000
0100
0010
,
0001
0200
0300
0001
0100
0001
1000
0100
0020
0031
1000
0100
,
0010
0001
0010
0200
1300
0100
0010
0001
0010
0100
1000
0100
,
0010
0001
0010
0100
1000
0100
0010
0001
0010
1000
0100
0010
,
0001
1000
0100
0010
0001
1000
0100
0010
0000
0000
0010
0100
,
1000
0010
0100
0001
1000
0100
0010
0001
0100
0010
1000
0001
,
0010
0100
1000
0010
0200
1300
0001
0010
0100
1000
0010
0100
,
0010
0001
0010
0100
1000
0100
0010
0001
0010
0100
0000
1000
,
0100
0010
0001
0010
0100
0010
0001
0000
0010
0100
0010
1000
,
0100
0010
0001
0100
0010
0001
1000
0100
0010
0001
0020
0130
,
0010
0001
0010
0100
1000
0100
0010
0100
2000
3200
0320
0032
,
0023
0230
1300
0020
0230
0300
2200
3300
0000
0001
0010
0100
,
1000
0010
0001
0100
0010
0001
1000
0100
0010
0001
0010
0100
,
0001
0010
0100
0000
1000
0010
0001
0010
0100
0001
0100
0020
,
1030
0010
0001
0100
0010
0001
0100
0001
0010
0001
0010
1000
,
0100
1000
0010
1000
0020
2030
3001
1000
0001
1000
0001
1000
,
0001
1000
0100
0010
0001
0010
0001
0010
0100
0000
1000
0100
,
1000
0100
0010
0001
0100
0010
1000
0001
0010
0100
1000
0001
,
0010
0200
1300
0100
0010
0001
0010
0100
0010
0100
1000
0001
,
0010
0100
1000
0000
0001
0010
0110
1000
0100
0010
0001
0100
,
1000
0100
0020
0130
0001
0010
2000
0000
0000
3200
0000
0000
,
0320
0000
0032
0203
2300
3002
2003
3220
,
0332
0000
0000
0000
0000
0000
0000
0000
0000
0000
0000
0000
0000
0000
0000
0000
0000
0000
0000
0000
0000
0000
0000
0000
0003
0000
0000
0000
0000
0000
0000
0000
0001
0000
0000
0000
0000
0000
0000
0000
0010
0000
0000
0000
0000
0000
0000
0000
0100
0000
0000
0000
0000
0000
0000
0000
1000
0000
0000
0000
0000
0000
0000
0000
0000
0000
0000
0000
0000
0000
0000
0000
0200
0000
0000
0000
0000
0000
0000
0000
0000
0000
0000
0000
0000
0000
0000
0000
0000
0000
0000
0000
0000
0000
0000
0000
0320
0000
0000
0000
0000
0000
0000
0000
0000
0000
0000
0000
0000
0000
0000
0000
0000
0000
0000
0000
0000
0000
0000
0000
0032
0000
0000
0000
0000
0000
0000
0000
0000
0000
0000
0000
0000
0000
0000
0000
0000
0000
0000
0000
0000
0000
0000
0000
0003
0000
0000
0000
0000
0000
0000
0000
0000
0000
0000
0000
0001
0000
0000
0000
0000
0000
0010
0000
0000
0000
0000
0000
0100
0000
0000
0000
0000
0000
1000
0000
0000
0000
0000
0000
0100
0000
0000
0000
0000
0000
0010
0000
0000
0000
0000
0000
,
0001
2000
3200
0320
0032
0203
2300
3200
,
0320
0032
0023
0030
0220
0000
0330
0200
,
0302
0003
2000
0000
3020
0230
0302
0000
,
2003
3200
0320
0000
0230
0000
0000
0300
,
2000
0000
3200
0320
0032
0023
0230
0320
,
0230
2300
3000
0000
2222
0000
0000
0000
,
0000
0000
0000
0000
,
3333
0000
0000
0000
;
